Autor Tema: pinnacle studio 15 videos mpg4 (h.264)  (Leído 5316 veces)

Desconectado sirdomador

  • Newbie
  • *
  • Mensajes: 3
  • www.daboweb.com
pinnacle studio 15 videos mpg4 (h.264)
« en: 16 de Septiembre de 2013, 06:19:08 am »
al importar un video  de estas caracteristicas o similares como las describire abajo ,en el pinnacle 15 al lado sale el reproductor del video al darle play no reproduce con normalidad, primero sale el audio y el video reproduce muy lento. no asi los videos al abrirlos con el reproductor como el media clasic player

alguien sabe que pueda pasar???
el notebook tiene
- windows xp sp3
- 2.68 ram
- ati 1300
-  no soporta videos HD

hubo un momento en donde reproducia de forma fluida y todo normal, pero luego no se que paso y y quedo como conte mas arriba, ademas he desintalado e instalado 5 veces y nada, que puedo hacer?


Citar
Citar
Format                                   : MPEG-4
Format profile                           : Base Media / Version 2
Codec ID                                 : mp42
File size                                : 101 MiB
Duration                                 : 4mn 25s
Overall bit rate mode                    : Variable
Overall bit rate                         : 3 195 Kbps
Encoded date                             : UTC 2012-10-21 02:06:01
Tagged date                              : UTC 2012-10-21 02:06:01
gsst                                     : 0
gstd                                     : 265403
gssd                                     : BBE2D0009HH1350910882997988
gshh                                     : o-o---preferred---sn-8ug-njae---v6---lscache3.c.youtube.com

Video
ID                                       : 1
Format                                   : AVC
Format/Info                              : Advanced Video Codec
Format profile                           : [email protected]
Format settings, CABAC                   : Yes
Format settings, ReFrames                : 1 frame
Codec ID                                 : avc1
Codec ID/Info                            : Advanced Video Coding
Duration                                 : 4mn 25s
Bit rate                                 : 3 000 Kbps
Maximum bit rate                         : 6 099 Kbps
Width                                    : 1 280 pixels
Height                                   : 720 pixels
Display aspect ratio                     : 16:9
Frame rate mode                          : Constant
Frame rate                               : 29.970 fps
Color space                              : YUV
Chroma subsampling                       : 4:2:0
Bit depth                                : 8 bits
Scan type                                : Progressive
Bits/(Pixel*Frame)                       : 0.109
Stream size                              : 94.9 MiB (94%)
Tagged date                              : UTC 2012-10-21 02:06:01

Audio
ID                                       : 2
Format                                   : AAC
Format/Info                              : Advanced Audio Codec
Format profile                           : LC
Codec ID                                 : 40
Duration                                 : 4mn 25s
Bit rate mode                            : Variable
Bit rate                                 : 192 Kbps
Maximum bit rate                         : 201 Kbps
Channel(s)                               : 2 channels
Channel positions                        : Front: L R
Sampling rate                            : 44.1 KHz
Compression mode                         : Lossy
Stream size                              : 6.07 MiB (6%)
Title                                    : IsoMedia File Produced by Google, 5-11-2011
Encoded date                             : UTC 2012-10-21 02:06:01
Tagged date                              : UTC 2012-10-21 02:06:01

saludos ojala puedan ayudarme.

Desconectado Liamngls

  • Administrator
  • ******
  • Mensajes: 15551
    • Manuales-e
Re:pinnacle studio 15 videos mpg4 (h.264)
« Respuesta #1 en: 16 de Septiembre de 2013, 03:15:07 pm »
¿Te pasa solo con el pinnacle, si lo reproduces para verlo en otro programa lo ves bien?

Desconectado sirdomador

  • Newbie
  • *
  • Mensajes: 3
  • www.daboweb.com
Re:pinnacle studio 15 videos mpg4 (h.264)
« Respuesta #2 en: 16 de Septiembre de 2013, 03:30:44 pm »
¿Te pasa solo con el pinnacle, si lo reproduces para verlo en otro programa lo ves bien?

osea si lo reproduzco con el gom player (reproductor) me los reproduce lento
al reproducirlo con el media clasic player (reproductor que viene con el codec klite me lo reproduce de manera normal y bien, aunque desintale el gom player tengo la misma falla

es solo con el pinnacle :(

no se si sean los codec o algo anda mal pero hubo un momento en donde dejo de reproducir lento el pinnacle y andaba bien, pero a cambio de eso me dejo sin audio para reproducir los videos en el media clasic player

Desconectado Liamngls

  • Administrator
  • ******
  • Mensajes: 15551
    • Manuales-e
Re:pinnacle studio 15 videos mpg4 (h.264)
« Respuesta #3 en: 16 de Septiembre de 2013, 08:42:12 pm »
¿Te pasa solo con el pinnacle, si lo reproduces para verlo en otro programa lo ves bien?

osea si lo reproduzco con el gom player (reproductor) me los reproduce lento
al reproducirlo con el media clasic player (reproductor que viene con el codec klite me lo reproduce de manera normal y bien, aunque desintale el gom player tengo la misma falla

es solo con el pinnacle :(

No, no es solo con el pinnacle porque con el Gom también te pasa, no te pasa con el otro porque lleva sus propios codecs y no necesita hacer uso de los del sistema.

Prueba a actualizar el pack de codecs que uses o a instalar uno actualizado.

Desconectado sirdomador

  • Newbie
  • *
  • Mensajes: 3
  • www.daboweb.com
Re:pinnacle studio 15 videos mpg4 (h.264)
« Respuesta #4 en: 17 de Septiembre de 2013, 03:20:57 pm »
¿Te pasa solo con el pinnacle, si lo reproduces para verlo en otro programa lo ves bien?

osea si lo reproduzco con el gom player (reproductor) me los reproduce lento
al reproducirlo con el media clasic player (reproductor que viene con el codec klite me lo reproduce de manera normal y bien, aunque desintale el gom player tengo la misma falla

es solo con el pinnacle :(

No, no es solo con el pinnacle porque con el Gom también te pasa, no te pasa con el otro porque lleva sus propios codecs y no necesita hacer uso de los del sistema.

Prueba a actualizar el pack de codecs que uses o a instalar uno actualizado.

los probe instalando a la ultima version y nada, de hecho cuando me funciono bien el pinnacle y logre editar 1 video tenis los codecs desactualizados.

que podre hacer?
me dices de algun codec que sea bueno? o algo en donde me pueda reproducir de forma fluida en el pinnacle, o capas esten mas configurados los codec, pero ahi yo no se configurarlo :/

saludos.

 

Aviso Legal | Política de Privacidad | Política de Cookies

el contenido de la web se rige bajo licencia
Creative Commons License